Téléchargez l'application!

show episodes
 
Le Podcast Francophone de la musique Eurodance. Je vous présente, à travers les épisodes, les artistes qui ont marqué l'eurodance via des extraits musicaux. Avec des anecdotes, biographies, discographies ou des thèmes tels que les pionniers de l'eurodance ou encore une sélection de reprises et ballades toujours dans ce genre musical. Bonne écoute!
 
Loading …
show series
 
Direction l'Autriche avec Imperio, ce groupe eurodance qui va vous faire vibrer via une bonne dose de mythologie romaine.Bonne écoute!Retrouvez Eurodance Story sur - Soundcloud : https://soundcloud.com/eurodance-story- Apple Podcast : https://itunes.apple.com/fr/podcast/eurodance-story/id1446532245- Podcloud : https://podcloud.fr/podcast/eurodances…
 
Ce maître italien de la Trance Spatiale fera connaitre son nom lorsqu'il choisira le chemin de l'eurodance. Découvrez l'histoire musicale d' Einstein Doctor Deejay.Bonne écoute!Retrouvez Eurodance Story sur - Soundcloud : https://soundcloud.com/eurodance-story- Apple Podcast : https://itunes.apple.com/fr/podcast/eurodance-story/id1446532245- Podclo…
 
3 heures de folie et de pur plaisir sonore pour terminer l'aventure discographique de Cappella, l'un des plus grands groupes iconiques de toute l'histoire de l'eurodance!Veuillez tout d'abord écouter la part.1 de la story de Cappella qui est l'épisode n°15 d'Eurodance Story en écoute ici : https://soundcloud.com/eurodance-story/ep-15-cappella-story…
 
Voici les resultats des Eurodance 2020 Awards avec les prix du meilleur album, de la meilleure voix et de la meilleure chanson eurodance de l'année 2020!Merci à toutes et tous pour votre participation !Bonne écoute!Retrouvez Eurodance Story sur - Soundcloud : https://soundcloud.com/eurodance-story- Apple Podcast : https://itunes.apple.com/fr/podcas…
 
Découvrez cette reine de l'eurodance canadienne via le parcours musical brillant de cette chanteuse que son public connait sous le nom de EMJAY!Bonne écoute!Retrouvez Eurodance Story sur - Soundcloud : https://soundcloud.com/eurodance-story- Apple Podcast : https://itunes.apple.com/fr/podcast/eurodance-story/id1446532245- Podcloud : https://podclou…
 
Découvrez la magnifique histoire de Aqua, les rois de la Bubblegum Dance, avec des hits qui ont grimpé jusque dans les sommets des charts de tous les pays de notre planète !Bonne écoute!Retrouvez Eurodance Story sur - Soundcloud : https://soundcloud.com/eurodance-story- Apple Podcast : https://itunes.apple.com/fr/podcast/eurodance-story/id144653224…
 
En l'occasion de ce jour très spécial, Eurodance Story vous offre ce pack de 51 chansons eurodance de Noël.MERRY X-Mas ! et Enjoy ;)Bonne écoute!Voici la tracklist de ce pack de Noël:1 - Mr President - Coco Jambo (Christmas Version)2 - Cascada - Last Christmas3 - Splash - Bells Of Hope4 - Ann Lee - 2 Times (X-Mas Edit)5 - DJ Bobo - It's Time for Ch…
 
Eurodance Story termine l'année 2020 en beauté avec ce projet italien eurodance issu de l'écurie pré-Eiffel 65. Méconnu en France, ce groupe est fortement apprécié par les passionnés de dance music. Découvrez entre autres l'impressionnante voix de la chanteuse de Da Blitz et du bijou sonore de son compositeur... Bonne écoute!Retrouvez Eurodance Sto…
 
Cela fait 2 ans déjà que le podcast Eurodance Story existe et c'est grâce à vous , chères poditrices et chers poditeurs.Vos nombreux retours et votre fidélité dans vos écoutes m'ont motivé jusqu'ici à vous faire véhiculer ma passion pour l'eurodance, ce genre musical qui est loin d'être enterré!Un bon nombre de poditeurs ont souhaité participer à c…
 
Amber est l'une des reines du Clubbing Americain. Elle a débuté avec succès dans l'eurodance qui a su se vendre jusqu'aux States. Découvrez l'histoire musicale de cette chanteuse multi talents qui a plus d'une corde à son arc vocal.Bonne écoute!Retrouvez Eurodance Story sur - Soundcloud : https://soundcloud.com/eurodance-story- Apple Podcast : http…
 
Découvrez la longue histoire musicale de Bernard Greene a.k.a BG The Prince of Rap, l'un des plus grands rappeurs de l'eurodance allemande! Frissons garantis...Bonne écoute!Retrouvez Eurodance Story sur - Soundcloud : https://soundcloud.com/eurodance-story- Apple Podcast : https://itunes.apple.com/fr/podcast/eurodance-story/id1446532245- Podcloud :…
 
Vous allez découvrir une bombe explosive de l'eurodance suédoise . Pandora est une megastar en Scandinavie et ailleurs. Plongeons nous ensemble dans son univers musical...Bonne écoute!Retrouvez Eurodance Story sur - Soundcloud : https://soundcloud.com/eurodance-story- Apple Podcast : https://itunes.apple.com/fr/podcast/eurodance-story/id1446532245-…
 
TRACK 01 AUDIO TITLE " ASAP (Extended Mix) - 96" PERFORMER "Mike Candys & Ane " INDEX 01 00:00:00 TRACK 02 AUDIO TITLE "Say What You Wanna (Extended Mix)" PERFORMER "Tujamo" INDEX 01 00:02:32 TRACK 03 AUDIO TITLE " Let Me Love You (Extended) - 100" PERFORMER "DJ Snake Ft Justin Bieber" INDEX 01 00:05:32 TRACK 04 AUDIO TITLE " Miss California (Exten…
 
Long Play est un épisode musical dans lequel on parcourt les pistes de la tracklist d'un album eurodance.Aujourd'hui on s'attarde sur le LP Real Things de 2 Unlimited sorti en 1994.Voici sa tracklist:1 The Real Thing 2 Do What I Like 3 Here I Go 4 Burning Like Fire 5 Info Superhighway 6 Hypnotised 7 Tuning Into Something Wild 8 Escape In Music 9 Se…
 
Issu de la scene dance belge et pionnier de l'eurodance, le groupe Cartouche a laissé son empreinte dans l'univers de la dance music à plusieurs reprises. Découvrez les personnes qui se cachent derrière cet excellent projet bien souvent encore méconnu par les plus jeunes.Bonne écoute!Retrouvez Eurodance Story sur - Soundcloud : https://soundcloud.c…
 
Loading …

Guide de référence rapide

Google login Twitter login Classic login