Classical Dance public
[search 0]

Téléchargez l'application!

show episodes
 
Loading …
show series
 
TRACK 01 AUDIO TITLE "You Shaped Hole (Extended Mix)" PERFORMER "Baby Queen" INDEX 01 00:00:00 TRACK 02 AUDIO TITLE " Instagram (Extended Mix) - 96" PERFORMER "Dimitri Vegas & Like Mike & David Guetta & Daddy Yankee & Afro Bros & Natti Natash " INDEX 01 00:02:22 TRACK 03 AUDIO TITLE "Taki Taki (Extended Mix)" PERFORMER "Dj Snake Feat. Selena Gomez,…
 
Radio Nova revisite ses propres classiques : les raretés de tout bord qui rythment notre antenne, de la soul-funk au hip-hop en passant par les musiques afro-latines et la pop. Aujourd’hui : « Le bien, le mal » de Guru et Mc Solaar. Une rencontre transatlantique que l’on retrouve sur le premier album solo de feu Guru, qui s’est fait connaître au se…
 
Radio Nova revisite ses propres classiques : les raretés de tous bords qui rythment notre antenne, de la soul-funk au hip-hop en passant par les musiques afro-latines et la pop. Aujourd’hui : « Riot Radio » de The Dead 60’s. Un shoot d’énergie qui nous arrive de Liverpool. Notre Nova Classic du jour c’est « Riot Radio » de The Dead 60’s. Un groupe …
 
Radio Nova revisite ses propres classiques : les raretés de tout bord qui rythment notre antenne, de la soul-funk au hip-hop en passant par les musiques afro-latines et la pop. Aujourd’hui : « Do you feel it ? » de Joe Cuba Sextet. « Do you feel it ? » : une déclaration d’amour du musicien portoricain Joe Cuba Sextet à son ghetto, ou plutôt, devrai…
 
Radio Nova revisite ses propres classiques : les raretés de tout bord qui rythment notre antenne, de la soul-funk au hip-hop en passant par les musiques afro-latines et la pop. Aujourd’hui : « See the Sun » de Les Gammas. Notre Nova Classic du jour est signé Les Gammas, et s’appelle « See The Sun ». Un morceau sorti en 2000 sur Exercices de Style, …
 
Radio Nova revisite ses propres classiques : les raretés de tout bord qui rythment notre antenne, de la soul-funk au hip-hop en passant par les musiques afro-latines et la pop. Aujourd’hui : un spécial Francis Bebey. C'est un nova classic un peu spécial ce soir, puisqu’on laisse la parole au musicien, poète, écrivain, Francis Bebey, disparu il y a …
 
Radio Nova revisite ses propres classiques : les raretés de tout bord qui rythment notre antenne, de la soul-funk au hip-hop en passant par les musiques afro-latines et la pop. Aujourd’hui : « Work To Do » d’Average White Band. « Work To Do », un Nova Classic dont on écoute aujourd’hui la version du Average White Band, puisque l’originale est signé…
 
TRACK 01 AUDIO TITLE " Viva la Vida (Mobin Master Remix) - 132" PERFORMER "Coldplay" TRACK 02 AUDIO TITLE " I'm Sorry - 127" PERFORMER "Just a man" TRACK 03 AUDIO TITLE " Waves of luv (Disco boys remix) - 128" PERFORMER "2black" TRACK 04 AUDIO TITLE " One love (2010) - 126" PERFORMER "David Guetta & Estelle" TRACK 05 AUDIO TITLE " I'm In Love (Orig…
 
Radio Nova revisite ses propres classiques : les raretés de tout bord qui rythment notre antenne, de la soul-funk au hip-hop en passant par les musiques afro-latines et la pop. Aujourd’hui : « You ain’t really Down » de Status 4 (Jazzanova Hey Baby Mix). En 2005, le collectif de DJs allemands Jazzanova monté dix ans plus tôt, produit, remixe, et a …
 
Radio Nova revisite ses propres classiques : les raretés de tout bord qui rythment notre antenne, de la soul-funk au hip-hop en passant par les musiques afro-latines et la pop. Aujourd’hui : « Dance » d’E.S.G. Notre Nova Classic nous arrive du sud du Bronx aujourd’hui. Elles sont trois, elle sont soeurs et ont pris le nom de pierres précieuses. C’e…
 
Lorsque Richard de Bordeaux et Daniel Beretta chantaient « La Drogue ». Radio Nova revisite ses propres classiques : les raretés de tout bord qui rythment notre antenne, de la soul-funk au hip-hop en passant par les musiques afro-latines et la pop. Aujourd’hui, « La Drogue » de Richard de Bordeaux & Daniel Beretta. L’histoire d’une bande-originale …
 
Radio Nova revisite ses propres classiques : les raretés de tout bord qui rythment notre antenne, de la soul-funk au hip-hop en passant par les musiques afro-latines et la pop. Aujourd’hui : « Nothing Compares 2 U » de Jimmy Scott. Et c’est une voix d’ange que l’on convoque avec cette reprise de ce morceau de Prince par ce jazzman à la voix si sing…
 
Radio Nova revisite ses propres classiques : les raretés de tout bord qui rythment notre antenne, de la soul-funk au hip-hop en passant par les musiques afro-latines et la pop. Aujourd’hui : « Don’t Leave Me » de Delroy Wilson. Une reprise reggae de « Where Did Our Love Go », le premier hit de The Supremes, célèbre trio féminin de la Motown au sein…
 
Radio Nova revisite ses propres classiques : les raretés de tout bord qui rythment notre antenne, de la soul-funk au hip-hop en passant par les musiques afro-latines et la pop. Aujourd’hui : « Let’s Go There Together » de Max Brennan. On danse ce matin sur ce titre de l’anglais Max Brennan qui sort « Let’s Go There Together », sur le label japonais…
 
Radio Nova revisite ses propres classiques : les raretés de tout bord qui rythment notre antenne, de la soul-funk au hip-hop en passant par les musiques afro-latines et la pop. Aujourd’hui : « Forever Mona » de Chez Damier & Stacey Pullen. C’est ce qu’on appelle un anthem, un hymne de dancefloor. On le doit à deux producteurs qui ont accompagné l’h…
 
Radio Nova revisite ses propres classiques : les raretés de tout bord qui rythment notre antenne, de la soul-funk au hip-hop en passant par les musiques afro-latines et la pop. Aujourd’hui : « Beggin » de Timebox. Non, la version jouée par Radio Nova n’est pas l’originale de Frankie Valli and the Four Seasons, remise au goût du jour par un edit de …
 
Radio Nova revisite ses propres classiques : les raretés de tout bord qui rythment notre antenne, de la soul-funk au hip-hop en passant par les musiques afro-latines et la pop. Aujourd’hui : « Car Video » de Sporto Kantès. « Car Video ». C’est avec ce titre que l’on a découvert le duo formé par Benjamin Sportès et Nicolas Kantorowicz en 2001, année…
 
Radio Nova revisite ses propres classiques : les raretés de tout bord qui rythment notre antenne, de la soul-funk au hip-hop en passant par les musiques afro-latines et la pop. Aujourd’hui : « Hot Hot Hot » d’Arrow. https://www.youtube.com/watch?v=OkGgdIBX1to&feature=emb_logo Un morceau qui, comme son nom l’indique, fait monter la température d’un …
 
Radio Nova revisite ses propres classiques : les raretés de tout bord qui rythment notre antenne, de la soul-funk au hip-hop en passant par les musiques afro-latines et la pop. Aujourd’hui : « Motor Launch For Hire » de Back To Earth. En hommage à au dj et producteur londonien Phil Asher, disparu ce vendredi à l’âge de 50 ans, ce Nova classic qu’il…
 
Radio Nova revisite ses propres classiques : les raretés de tout bord qui rythment notre antenne, de la soul-funk au hip-hop en passant par les musiques afro-latines et la pop. Aujourd’hui : « Freedom » de Jurassic 5. Un vent de liberté qui nous arrive de Californie et souffle en 2005. Jurassic 5, c’est Chali 2na, Zaakir, Akil et Marc 7 au micro et…
 
Radio Nova revisite ses propres classiques : les raretés de tout bord qui rythment notre antenne, de la soul-funk au hip-hop en passant par les musiques afro-latines et la pop. Aujourd'hui Paid In Full d’Eric B & Rakim remixé par Coldcut. C’est un classique qui nous replonge dans les années 80, un classique dont nous parlait Loïk Dury, ancien progr…
 
Radio Nova revisite ses propres classiques : les raretés de tout bord qui rythment notre antenne, de la soul-funk au hip-hop en passant par les musiques afro-latines et la pop. Aujourd'hui : « Would you Believe in Me » de Jon Lucien. « Would you Believe in Me » : une balade romantique comme on les aime sur la Nova, sortie en 1973 par Jon Lucien, ce…
 
Radio Nova revisite ses propres classiques : les raretés de tout bord qui rythment notre antenne, de la soul-funk au hip-hop en passant par les musiques afro-latines et la pop. Aujourd'hui : « Taboo » de Gater. En 2002, Gater, l’alias du producteur new-yorkais Brian Suarez, sort son premier EP sur le tout nouveau label de Zombie Nation, DeKathlon R…
 
Radio Nova revisite ses propres classiques : les raretés de tout bord qui rythment notre antenne, de la soul-funk au hip-hop en passant par les musiques afro-latines et la pop. Aujourd'hui : « Let Me Love You » de Bunny Mack. « Let Me Love You » : un morceau qui a jailli en dix minutes et sera le hit du musicien sierra-léonais Bunny Mack, disparu e…
 
Radio Nova revisite ses propres classiques : les raretés de tout bord qui rythment notre antenne, de la soul-funk au hip-hop en passant par les musiques afro-latines et la pop. Aujourd'hui : « African Border » de Jamalski. « African Border » : un morceau qui nous replonge dans les 90’s avec le emcee américain Jamalski. Jamal Mitchell (à la ville), …
 
TRACK 01 AUDIO TITLE " ASAP (Extended Mix) - 96" PERFORMER "Mike Candys & Ane " INDEX 01 00:00:00 TRACK 02 AUDIO TITLE "Say What You Wanna (Extended Mix)" PERFORMER "Tujamo" INDEX 01 00:02:32 TRACK 03 AUDIO TITLE " Let Me Love You (Extended) - 100" PERFORMER "DJ Snake Ft Justin Bieber" INDEX 01 00:05:32 TRACK 04 AUDIO TITLE " Miss California (Exten…
 
Tous les vendredis, on ressort des essentiels pour investir la piste de danse, c’est l'heure du Nova Classic. Et notre nova Classic ce soir c’est le remix de Hustlin de Rick Ross par Prince Of Ballard. C'était en 2011, quelque s années après la sortie du premier album de Rick Ross, Port of Miami. Ce morceau a été beaucoup remixé, notamment par Jay-…
 
Radio Nova revisite ses propres classiques : les raretés de tous bords qui rythment notre antenne, de la soul-funk au hip-hop en passant par les musiques afro-latines et la pop. Aujourd'hui : « Come With Me » de Alexkid feat Lissette Alea Le classic du jour est hexagonal, on le doit à Alexkid c’est “Come With Me”. Un morceau sorti en 2003 par Alexk…
 
Vendredi oblige, ce sont les classiques de dancefloors qui sont à l’honneur. Celui du jour s'appelle « Deep Inside ». Il est signé Hardrive, l’un des nombreux alias de Little Louie Vega, qui avec Kenny Dope Gonzalez, forme le duo Masters at Work. Hardrive, c’est aussi le nom que le duo donne à un EP sorti en 1993. Le principe est simple : à chacun …
 
Radio Nova revisite ses propres classiques : les raretés de tous bords qui rythment notre antenne, de la soul-funk au hip-hop en passant par les musiques afro-latines et la pop. Aujourd'hui : « Hold It Down » de The Quantic Soul Orchestra. See acast.com/privacy for privacy and opt-out information.
 
Radio Nova revisite ses propres classiques : les raretés de tous bords qui rythment notre antenne, de la soul-funk au hip-hop en passant par les musiques afro-latines et la pop. Aujourd'hui : « No Rhyme No Reason (ft. Jackson Sloan) » de LTJ X-Perience. See acast.com/privacy for privacy and opt-out information.…
 
1. Intro - C'est Ibiza qui t'a choisi 2. Dr Kucho - La Tarde Se Ha Puesto Triste (Disc Doctor Mix) 3. Mylo, Claptone - Drop The Pressure (Extended Version) 4. Superlover, Simion - Funky People (Simion Mix) 5. Alex Kenji, Federico Scavo - Gimme Five (Tradelove Remix) 6. Crazibiza, Nari - Push Up (Original Mix ) 7. Cheesecake Boys - Funky Monday (Cra…
 
Loading …

Guide de référence rapide

Google login Twitter login Classic login