Dj MHD38 public
[search 0]
Plus

Téléchargez l'application!

show episodes
 
Loading …
show series
 
TRACK 01 AUDIO TITLE " ASAP (Extended Mix) - 96" PERFORMER "Mike Candys & Ane " INDEX 01 00:00:00 TRACK 02 AUDIO TITLE "Say What You Wanna (Extended Mix)" PERFORMER "Tujamo" INDEX 01 00:02:32 TRACK 03 AUDIO TITLE " Let Me Love You (Extended) - 100" PERFORMER "DJ Snake Ft Justin Bieber" INDEX 01 00:05:32 TRACK 04 AUDIO TITLE " Miss California (Exten…
 
N-Trance feat. Rod Stewart Da Ya Think I'm Sexy - 112 Samira The Rain (Dance Soul Mix) - 127 Purple Beat Don't Stop Till You Get Enough (12'' Extended Mix) - 99 Beat System Fresh (Extended Dj Mix) 1996 - 116 Beat System Reggaenight (Extended Club Mix) 1996 - 118 Clubland Hold on [Tigher To love] (Late Night Mix) 1991 - 120 Double You Please Don't G…
 
Den Harrow Mad desire - 98 Dr Martini You are the one - 94 Funny Twins You And Me (Vocal) - 102 Italove L'Amour (Extended Version) - 108 Eddy Huntington Ussr - 110 Kristian Conde Its A Dream - 110 Silver Pozzoli Around my dream - 110 Loco Loco Hey mr dj - 111 Confetti's The Sound of C - 113 Scotch Disco band - 113 Betty Miranda Take Me To The Top -…
 
Starley Call On Me (Extended)98 - 98 DJ Snake Ft Justin Bieber Let Me Love You (Extended) - 100 JOAAN feat. ALEXIA MAITRE Just like you (Radio Edit) - 104 Katy Perry Feat. Migos Bon appétit remixes (Martin Jensen Remix)106 - 106 Kungs More Mess Ft Olly Murs & Coely (Original Mix)114 - 114 Dyem Sighta Hold on (I Want You)120 - 120 Robin S Show Me Lo…
 
Soma Riba Yaka danser - 90 String color String string - 97 KAIROS Higha level ( tropical) - 101 Sean Paul Feat Dua Lipa No lie - 154 Kevin Little VS. Madonna Turn me on isla bonita - 107 Dj Sem Ft. Lartiste & Matt Houston Libre comme l'air (Extended) - 108 Joya Ft. Edalam & La Harissa Suis Moi (Extended) - 112 Mr Carlton Feat. Zak On te connait (Ex…
 
2Pac & Banks Thugz drowning - Carlos Serrano mix (2014) - 92 Eddie C Auf Der Ufer Feat Rune Lindbaek (Original Mix) - 95 Radistai DJ's Ft. Justinas Jarutis At The Sun - 96 Anton Wick Wash my world (Tropik Club Edit) - 108 Adele Send My Love (Gon Haziri Remix) [Intro Clean] - 115 Sono Keep Control (H.O.S.H. Remix) - 117 Daniel Chapman Ft. Missy Elli…
 
Maitre Gims Ma Beaute (Guillaumeblast Extended) ELSA FA feat. MATT HOUSTON Dis Moi Mi Amor - Club Mix (Stepper'Z Version) Carmelo Ft. Willy William Ne M'Oublie Pas (Club Extended) DJ SO ONE feat. DEVIL GENIUS Rdv (Radio Edit) CLAYTON HAMILTON Tassabam bam (Club Edit) DJ BLUE feat. NICKY B Party vibes (2017) (Original Mix) DJ R'AN Hands up MIKY UNO …
 
Artiste Titre du morceau David Guetta & Afrojack Ft Charli XCX & French Montana Dirty Sexy Money Kissmi La moto (Club Extended) Sak Noel & Salvi Ft. Sean Paul Trumpets (Extended Mix) Inna Ft. Erik Ruleta J Balvin Ginza (Coppola Extended Mix) LUCENZO Turn Me On - Extended Mix Major Lazer Watch Out For This (Bumaye) (Extended Mix) Moonbahton Factory …
 
Coolio & L.V Gangsta's Paradise MC Solaar Bouge de là Rihanna & Jay-Z & Chris Brown Umbrella (Remix) 50 Cent & Beyonce & Mary J Blige In da club (Hitz Remix with Intro) Mary J Blige Family Affair (Intro) Iam L'empire du côté obscur Busta Rhymes Holla Will Smith Party starter Snoop Doggy Dogg Whats My Name Keep Cool Je vais sortir ce soir Sinik & Ch…
 
Alexia Uh La La La (Club Mix) 1997 Ace Of Base All That She Wants (Club Mix) 1993 Mr. President Coco Jambo Black Box Open Your Eyes (Extended Mix) 1990 Ace of Base CRUEL SUMMER C & C Music Factory Gonna Make You Sweat Beat System Reggaenight (Extended Club Mix) 1996 Beat System fresh Clubland Hold on [Tigher To love] (Late Night Mix) 1991 Double Yo…
 
Italian Boys Forever lovers Wish Key Last summer Reale Accademia She's mine Den Harrow My time Gazebo I like chopin Scotch Delirio mind Radiorama Chance To Desire (Vocal Version 85 Silver Pozzoli Around my dream Eddy Huntington Ussr Confetti's C In China Loco Loco Hey mr dj Confetti's The Sound of C Scotch Disco band P Lion Happy Children Fabian Ne…
 
Mana & Nicky Jam De Piez A Cabeza Carlos Vives ft. Shakira & Maluma La Bicicleta Remix Luny Tunes Mayor Que Yo Don Omar Dile Nicky Jam Hasta El Amanecer Calvin Harris ft Frank Ocean & Migos Slide (Devolve Remix) Makassy Danse Danse Danse (Club Extended) Sia Ft. Sean Paul Cheap Thrills (Xemi Canovas & David Pateo Mambo Version)-23 Alan Walker Faded …
 
L.I.F.E. Feat. Lady Viva la vita (Xp, Ellis Colin Miami Radio Edit Remix) Luis Fonsi Ft. Daddy Yankee Despacito (Mastered Dk) Ed Sheeran Shape Of You (Funkymix) Lartiste Clandestina (Dj Mika Rmx) Emmanuelle Ivara Pilé pilé (Extended Club) Luyanna Ft. Bobby Kimball La distancia (Extended French) Sebastien Chato C'est La Vie (Extended) Bamby & Jahyan…
 
Loading …

Guide de référence rapide

Google login Twitter login Classic login